Map 1 Map 1

We've changed our domain name from sanet.cd to saproxycc.ts.alapage.ru.
Please help us spread this Thanks!

Super 8 2011 BRRip XviD (700mb-1LinK)

This post was published 6 years ago and the download links can be irrelevant.
Scroll down to see the links and check these – maybe you will be lucky!

Code:

Super.8.2011.BRRip.XviD-BKZ

Format : AVI
Format/Info : Audio Video Interleave
File size : 700 MiB
Duration : 1h 51mn
Overall bit rate : 875 Kbps

Video
ID : 0
Format : MPEG-4 Visual
Format profile : Advanced [email protected]
Format settings, BVOP : 2
Format settings, QPel : No
Format settings, GMC : No warppoints
Format settings, Matrix : Default (H.263)
Codec ID : XVID
Codec ID/Hint : XviD
Duration : 1h 51mn
Bit rate : 736 Kbps
Width : 656 pixels
Height : 272 pixels
Display aspect ratio : 2.40:1
Frame rate : 23.976 fps
Color space : YUV
Chroma subsampling : 4:2:0
Bit depth : 8 bits
Scan type : Progressive
Compression mode : Lossy
Bits/(Pixel*Frame) : 0.172
Stream size : 588 MiB (84%)
Writing library : XviD 1.2.1 (UTC 2008-12-04)

Audio
ID : 1
Format : MPEG Audio
Format version : Version 1
Format profile : Layer 3
Mode : Joint stereo
Mode extension : MS Stereo
Codec ID : 55
Codec ID/Hint : MP3
Duration : 1h 51mn
Bit rate mode : Variable
Bit rate : 128 Kbps
Channel(s) : 2 channels
Sampling rate : 48.0 KHz
Compression mode : Lossy
Stream size : 102 MiB (15%)
Alignment : Aligned on interleaves
Interleave, duration : 24 ms (0.58 video frame)
Interleave, preload duration : 66 ms
Title : T2_Audio - 5.1 channels
Writing library : LAME3.92
Encoding settings : -m j -V 4 -q 2 -lowpass 17.5 --abr 128





Download from FS

Password: iomentel
    Show more

    Join the conversation!

    Login or Register
    to post a comment.

    Advanced Search